StatistikaStatistika Facebook GroupFacebook Group Steam GroupSteam Group CS 1.6 [p48]CS 1.6 [p48] Felna.ORG UploadFelna.ORG Upload Game Arena TS3Game Arena TS3
Serbian Street Forum



Share | 
 

 Aliens vs Predator / Collection

Pogledaj prethodnu temu Pogledaj sledeću temu Ići dole 
AutorPoruka
Gost
Gost



PočaljiNaslov: Aliens vs Predator / Collection   2010-08-21, 16:56

[size=150]AVPR: Aliens vs Predator - Requiem (2007) + prevod[/size]
IMDb: 5.0/10 38,216 votes 3 nominations








Kod:
http://www.imdb.com/title/tt0758730/




A little town in the hills of Colorado will become the battleground between two of the deadliest extra-terrestrial lifeforms - the Alien and the Predator. When a Predator scout ship crash-lands in the hills outside the town, Alien facehuggers are released in the crash, and an even more evil creature - a hybrid Alien/Predator - is also released. A man & his son hunting in the forests near the crash site soon become the first victims of the facehuggers, and when a Predator receives data about the crash on his home planet, he comes to Earth. One at a time, the inhabitants of the town become targets of the Aliens and the Predator, including the local sheriff, a young female soldier recently returned from Iraq, and several teens. Though the National Guard is called in, they are unable to stop the deadly creatures, and a plan is set in motion to destroy the town with a nuclear device...
Citat :

Format : AVI
Format/Info : Audio Video Interleave
File size : 697 MiB
Duration : 1h 41mn
Overall bit rate : 964 Kbps

Video
ID : 0
Format : MPEG-4 Visual
Codec ID : XVID
Codec ID/Hint : XviD
Duration : 1h 41mn
Bit rate : 825 Kbps
Width : 624 pixels
Height : 256 pixels
Display aspect ratio : 2.40:1
Frame rate : 23.976 fps
Resolution : 24 bits
Colorimetry : 4:2:0
Scan type : Progressive
Bits/(Pixel*Frame) : 0.215
Stream size : 597 MiB (86%)

Audio
ID : 1
Format : MPEG Audio
Format version : Version 1
Format profile : Layer 3
Codec ID : 55
Codec ID/Hint : MP3
Duration : 1h 41mn
Bit rate mode : Constant
Bit rate : 32.0 Kbps
Channel(s) : 2 channels
Sampling rate : 48.0 KHz
Resolution : 16 bits
Stream size : 90.9 MiB (13%)
Alignment : Aligned on interleaves
Interleave, duration : 24 ms (0.58 video frame)
Interleave, preload duration : 128 ms



Kod:
http://rapidshare.com/files/315247582/AVPR.part1.rar
http://rapidshare.com/files/315250934/AVPR.part2.rar
http://rapidshare.com/files/315254501/AVPR.part3.rar
http://rapidshare.com/files/315257989/AVPR.part4.rar
http://rapidshare.com/files/315261464/AVPR.part5.rar
http://rapidshare.com/files/315264668/AVPR.part6.rar
http://rapidshare.com/files/315268063/AVPR.part7.rar
http://rapidshare.com/files/315268650/AVPR.part8.rar

Kod:
pas: SerbianForum.org
Nazad na vrh Ići dole
 
Aliens vs Predator / Collection
Pogledaj prethodnu temu Pogledaj sledeću temu Nazad na vrh 
Strana 1 od 1

Dozvole ovog foruma:Ne možete odgovarati na teme u ovom forumu
Serbian Street Forum :: » Kanta :: Downaload :: Filomovi :: Strani Filmovi-
Skoči na: