StatistikaStatistika Facebook GroupFacebook Group Steam GroupSteam Group CS 1.6 [p48]CS 1.6 [p48] Felna.ORG UploadFelna.ORG Upload Game Arena TS3Game Arena TS3
Serbian Street Forum



Share | 
 

 Clasg Of thr Titans 2010 TS

Pogledaj prethodnu temu Pogledaj sledeću temu Ići dole 
AutorPoruka
Bleya
Admin


Broj poruka : 760
Poeni : 1578
Koliko njih me postuje : 5
Datum upisa : 08.05.2010

PočaljiNaslov: Clasg Of thr Titans 2010 TS   2010-05-22, 01:40

Filename:
Clash Of The Titans 2010 TS XViD - IMAGiNE

Also brought to you by www.IWANNADOWNLOAD.com

http://www.imdb.com/title/tt0800320/








DETAILS:

Video
Format : MPEG-4 Visual
Format profile : Streaming Video@L1
Format settings, BVOP : Yes
Format settings, QPel : No
Format settings, GMC : No warppoints
Format settings, Matrix : Default
Muxing mode : Packed bitstream
Codec ID : XVID
Codec ID/Hint : XviD
Duration : 1h 35mn
Bit rate : 1 865 Kbps
Width : 720 pixels
Height : 272 pixels
Display aspect ratio : 2.647
Frame rate : 23.976 fps
Resolution : 24 bits
Colorimetry : 4:2:0
Scan type : Progressive
Bits/(Pixel*Frame) : 0.397
Stream size : 1.25 GiB (93%)
Writing library : XviD 50

Audio
Format : MPEG Audio
Format version : Version 1
Format profile : Layer 3
Codec ID : 55
Codec ID/Hint : MP3
Duration : 1h 35mn
Bit rate mode : Constant
Bit rate : 128 Kbps
Channel(s) : 2 channels
Sampling rate : 48.0 KHz
Resolution : 16 bits
Stream size : 87.6 MiB (6%)
Alignment : Split accross interleaves
Interleave, duration : 42 ms (1.00 video frame)
Interleave, preload duration : 500 ms


NOTES:

IMAGiNE bringing you another release.....Clash of the Titans 2010
Right firstly thanks to a special friend for the video ....audio is our own.
Well at one stage we wasn't going to release this as it was a right pain in the ass.....mainly due to the cammer
having the shakes Laughing
Well to get this anywhere near good we've had to cut the source up into alot of small pieces and rotate,crop and filter
each one differently and then resize them to the same res and join together......took days.
So on some parts the AR might look a bit off and other parts it looks fine,we tried to find a nice balance inbetween so.
Audio was nice and sycning wise,it wasn't too bad.....10cuts or so in total.

Anyway we have decided to release this now,but i will warn you there is still some parts you can tell when the cammer moves
because you might see some black borders here and there...but after viewing and checking we think it's worth the release.




DOWNALOAD TO TORRENThttp://thepiratebay.org/torrent/4669475/Clash_Of_The_Titans
Nazad na vrh Ići dole
Pogledaj profil korisnika http://serbian-street.guildealliance.com
 
Clasg Of thr Titans 2010 TS
Pogledaj prethodnu temu Pogledaj sledeću temu Nazad na vrh 
Strana 1 od 1
 Similar topics
-
» Nov posao i napredovanje u 2010
» Venera u Biku, od 1. aprila 2010 kako deluje na vas?
» Retrogradni Merkur od 10.-30. 12.2010. u Jarcu i Strelcu
» Tranzit venere i marsa kroz Skorpiju
» Football Manager

Dozvole ovog foruma:Ne možete odgovarati na teme u ovom forumu
Serbian Street Forum :: » Kanta :: Downaload :: Filomovi :: Strani Filmovi-
Skoči na: