StatistikaStatistika Facebook GroupFacebook Group Steam GroupSteam Group CS 1.6 [p48]CS 1.6 [p48] Felna.ORG UploadFelna.ORG Upload Game Arena TS3Game Arena TS3
Serbian Street Forum



Share | 
 

 The A-Team 2010 TS V2 READNFO XViD

Pogledaj prethodnu temu Pogledaj sledeću temu Ići dole 
AutorPoruka
Bleya
Admin


Broj poruka : 760
Poeni : 1578
Koliko njih me postuje : 5
Datum upisa : 08.05.2010

PočaljiNaslov: The A-Team 2010 TS V2 READNFO XViD   2010-06-21, 09:55

[textarea]
[size=150]The A-Team 2010 TS V2 READNFO XViD - IMAGiNE[/size]
[/textarea]




Kod:
http://www.imdb.com/title/tt0429493/



Kod:
 
Video
ID                                      : 0
Format                                  : MPEG-4 Visual
Format profile                          : Advanced Simple@L5
Format settings, BVOP          : Yes
Format settings, QPel          : No
Format settings, GMC                    : No warppoints
Format settings, Matrix        : Default (MPEG)
Muxing mode                    : Packed bitstream
Codec ID                                : XVID
Codec ID/Hint                  : XviD
Duration                                : 1h 47mn
Bit rate                                : 1 697 Kbps
Width                          : 640 pixels
Height                                  : 272 pixels
Display aspect ratio                    : 2.35
Frame rate                              : 25.000 fps
Resolution                              : 24 bits
Colorimetry                    : 4:2:0
Scan type                      : Progressive
Bits/(Pixel*Frame)                      : 0.390
Stream size                    : 1.28 GiB (92%)
Writing library                : XviD 1.2.1 (UTC 2008-12-04)

Audio
ID                                      : 1
Format                                  : MPEG Audio
Format version                          : Version 1
Format profile                          : Layer 3
Codec ID                                : 55
Codec ID/Hint                  : MP3
Duration                                : 1h 47mn
Bit rate mode                  : Constant
Bit rate                                : 128 Kbps
Channel(s)                              : 2 channels
Sampling rate                  : 44.1 KHz
Resolution                              : 16 bits
Stream size                    : 98.5 MiB (7%)
Alignment                      : Split accross interleaves
Interleave, duration                    : 40 ms (1.00 video frame)
Interleave, preload duration    : 500 ms
Writing library                : LAME3.96r
Encoding settings              : -m j -V 4 -q 3 -lowpass 17.5 -b 128


NOTES:

IMAGiNE bringing you another release.....The A-Team 2010 TS V2

OK sources used relizlab video and some sweet line audio from TA ,thanks to both
Also a special mention to 66Butch for syncing this one ,cheers bro  ;-)
Now why a v2???because we always do a v2 :lol: ,well the real reason is because we spent all morning creating
our own subpack for this....so now all non english parts have hardcoded english subs ;-)
Also we slightly changed the filtering and AR......firstly the AR,nothing wrong really with our first one but this res on this
only gives you a 0.1% AR error compared to 0.9% on the other ....so no major difference really.
The filtering....well we tried to make it a touch sharper and also remove some of that yellow.







Kod:
 
http://rapidshare.com/files/400725212/TriniWarez_The_A.Team_2010.TS.V2.READNFO.XViD-IMAGiNE.part1.rar
http://rapidshare.com/files/400725607/TriniWarez_The_A.Team_2010.TS.V2.READNFO.XViD-IMAGiNE.part2.rar
http://rapidshare.com/files/400725648/TriniWarez_The_A.Team_2010.TS.V2.READNFO.XViD-IMAGiNE.part3.rar
http://rapidshare.com/files/400725318/TriniWarez_The_A.Team_2010.TS.V2.READNFO.XViD-IMAGiNE.part4.rar
http://rapidshare.com/files/400725404/TriniWarez_The_A.Team_2010.TS.V2.READNFO.XViD-IMAGiNE.part5.rar
http://rapidshare.com/files/400725369/TriniWarez_The_A.Team_2010.TS.V2.READNFO.XViD-IMAGiNE.part6.rar
http://rapidshare.com/files/400725508/TriniWarez_The_A.Team_2010.TS.V2.READNFO.XViD-IMAGiNE.part7.rar
http://rapidshare.com/files/400725284/TriniWarez_The_A.Team_2010.TS.V2.READNFO.XViD-IMAGiNE.part8.rar

ili

http://hotfile.com/dl/49416472/31a6819/TriniWarez_The_A.Team_2010.TS.V2.READNFO.XViD-IMAGiNE.part1.rar.html
http://hotfile.com/dl/49416597/8abaf10/TriniWarez_The_A.Team_2010.TS.V2.READNFO.XViD-IMAGiNE.part2.rar.html
http://hotfile.com/dl/49416710/8c57532/TriniWarez_The_A.Team_2010.TS.V2.READNFO.XViD-IMAGiNE.part3.rar.html
http://hotfile.com/dl/49416929/343dddb/TriniWarez_The_A.Team_2010.TS.V2.READNFO.XViD-IMAGiNE.part4.rar.html
http://hotfile.com/dl/49417181/c39d93b/TriniWarez_The_A.Team_2010.TS.V2.READNFO.XViD-IMAGiNE.part5.rar.html
http://rapidshare.com/files/400725369/TriniWarez_The_A.Team_2010.TS.V2.READNFO.XViD-IMAGiNE.part6.rar 
http://hotfile.com/dl/49417565/4016859/TriniWarez_The_A.Team_2010.TS.V2.READNFO.XViD-IMAGiNE.part7.rar.html
http://hotfile.com/dl/49417605/ad8e153/TriniWarez_The_A.Team_2010.TS.V2.READNFO.XViD-IMAGiNE.part8.rar.html
Nazad na vrh Ići dole
Pogledaj profil korisnika http://serbian-street.guildealliance.com
 
The A-Team 2010 TS V2 READNFO XViD
Pogledaj prethodnu temu Pogledaj sledeću temu Nazad na vrh 
Strana 1 od 1
 Similar topics
-
» Nov posao i napredovanje u 2010
» Venera u Biku, od 1. aprila 2010 kako deluje na vas?
» Retrogradni Merkur od 10.-30. 12.2010. u Jarcu i Strelcu
» Tranzit venere i marsa kroz Skorpiju
» Football Manager

Dozvole ovog foruma:Ne možete odgovarati na teme u ovom forumu
Serbian Street Forum :: » Kanta :: Downaload :: Filomovi :: Strani Filmovi-
Skoči na: