StatistikaStatistika Facebook GroupFacebook Group Steam GroupSteam Group CS 1.6 [p48]CS 1.6 [p48] Felna.ORG UploadFelna.ORG Upload Game Arena TS3Game Arena TS3
Serbian Street Forum



Delite | 
 

 Date Night R5 XViD LiNE

Pogledaj prethodnu temu Pogledaj sledeću temu Ići dole 
AutorPoruka
Bleya
Admin
avatar

Broj poruka : 760
Poeni : 1578
Koliko njih me postuje : 5
Datum upisa : 08.05.2010

PočaljiNaslov: Date Night R5 XViD LiNE   2010-06-10, 03:49

[textarea]
[size=150]Date Night R5 XViD LiNE - IMAGiNE[/size]
[/textarea]





Kod:
 
Ripper ...........:IMAGiNE IMDB Rating.......:6.9/10
Video Codec.......:XVID Release Date......:05/06/10
Audio Codec.......:MP3 Theatre Date......:09/04/10
Audio Bitrate.....:128 Runtime...........:1h 24mn
Subtitles.........:Nil Language..........:ENGLISH
Resolution........:720 x 304

DETAILS:

Video
Format : MPEG-4 Visual
Format profile : Streaming Video@L1
Format settings, BVOP : Yes
Format settings, QPel : No
Format settings, GMC : No warppoints
Format settings, Matrix : Default
Muxing mode : Packed bitstream
Codec ID : XVID
Codec ID/Hint : XviD
Duration : 1h 24mn
Bit rate : 2 188 Kbps
Width : 720 pixels
Height : 304 pixels
Display aspect ratio : 2.35
Frame rate : 25.000 fps
Resolution : 24 bits
Colorimetry : 4:2:0
Scan type : Progressive
Bits/(Pixel*Frame) : 0.400
Stream size : 1.29 GiB (94%)
Writing library : XviD 50

Audio
Format : MPEG Audio
Format version : Version 1
Format profile : Layer 3
Codec ID : 55
Codec ID/Hint : MP3
Duration : 1h 24mn
Bit rate mode : Constant
Bit rate : 128 Kbps
Channel(s) : 2 channels
Sampling rate : 44.1 KHz
Resolution : 16 bits
Stream size : 77.1 MiB (6%)
Alignment : Split accross interleaves
Interleave, duration : 40 ms (1.00 video frame)
Interleave, preload duration : 500 ms








Kod:
 

http://rapidshare.com/files/396940413/Devilsfunhouse.org_DNMAGiNE.part1.rar.html
http://rapidshare.com/files/396940409/Devilsfunhouse.org_DNMAGiNE.part2.rar.html
http://rapidshare.com/files/396940744/Devilsfunhouse.org_DNMAGiNE.part3.rar.html
http://rapidshare.com/files/396940747/Devilsfunhouse.org_DNMAGiNE.part4.rar.html
http://rapidshare.com/files/396940950/Devilsfunhouse.org_DNMAGiNE.part5.rar.html
http://rapidshare.com/files/396940955/Devilsfunhouse.org_DNMAGiNE.part6.rar.html
http://rapidshare.com/files/396941148/Devilsfunhouse.org_DNMAGiNE.part7.rar.html
http://rapidshare.com/files/396941024/Devilsfunhouse.org_DNMAGiNE.part8.rar.html

ili

http://hotfile.com/dl/47236240/074fa9b/Devilsfunhouse.org_DNMAGiNE.part1.rar.html
http://hotfile.com/dl/47236143/d1f6d79/Devilsfunhouse.org_DNMAGiNE.part2.rar.html
http://hotfile.com/dl/47236290/2790763/Devilsfunhouse.org_DNMAGiNE.part3.rar.html
http://hotfile.com/dl/47236284/fe8dac9/Devilsfunhouse.org_DNMAGiNE.part4.rar.html
http://hotfile.com/dl/47236469/75f0769/Devilsfunhouse.org_DNMAGiNE.part5.rar.html
http://hotfile.com/dl/47236351/3bc2d1e/Devilsfunhouse.org_DNMAGiNE.part6.rar.html
http://hotfile.com/dl/47236391/78c93e6/Devilsfunhouse.org_DNMAGiNE.part8.rar.html
Nazad na vrh Ići dole
Pogledaj profil korisnika http://serbian-street.guildealliance.com
 
Date Night R5 XViD LiNE
Pogledaj prethodnu temu Pogledaj sledeću temu Nazad na vrh 
Strana 1 od 1

Dozvole ovog foruma:Ne možete odgovarati na teme u ovom forumu
Serbian Street Forum :: » Kanta :: Downaload :: Filomovi :: Strani Filmovi-
Skoči na: