StatistikaStatistika Facebook GroupFacebook Group Steam GroupSteam Group CS 1.6 [p48]CS 1.6 [p48] Felna.ORG UploadFelna.ORG Upload Game Arena TS3Game Arena TS3
Serbian Street Forum



Share | 
 

 Iron Man 2 (2010) TS XViD

Pogledaj prethodnu temu Pogledaj sledeću temu Ići dole 
AutorPoruka
Bleya
Admin


Broj poruka : 760
Poeni : 1578
Koliko njih me postuje : 5
Datum upisa : 08.05.2010

PočaljiNaslov: Iron Man 2 (2010) TS XViD   2010-05-29, 13:32

[size=150]Iron Man 2 (2010) TS XViD - IMAGiNE [/size]
[/textarea]




Kod:
http://www.imdb.com/title/tt1228705/



Kod:
 
Ripper ...........: IMAGiNE IMDB Rating.......:7.9/10
Video Codec.......: XVID Release Date......:08/05/10
Audio Codec.......:MP3 Theatre Date......:07/05/10
Audio Bitrate.....:128 Runtime.......:1h 52mn
Subtitles.........:NIL Language..........:ENGLISH
Resolution...... 720 x 288

DETAILS:

Video
ID : 0
Format : MPEG-4 Visual
Format profile : Advanced Simple@L5
Format settings, BVOP : Yes
Format settings, QPel : No
Format settings, GMC : No warppoints
Format settings, Matrix : Default (MPEG)
Muxing mode : Packed bitstream
Codec ID : XVID
Codec ID/Hint : XviD
Duration : 1h 52mn
Bit rate : 1 608 Kbps
Width : 720 pixels
Height : 288 pixels
Display aspect ratio : 2.500
Frame rate : 25.000 fps
Resolution : 24 bits
Colorimetry : 4:2:0
Scan type : Progressive
Bits/(Pixel*Frame) : 0.310
Stream size : 1.26 GiB (100%)
Writing library : XviD 1.2.1 (UTC 2008-12-04)

Audio
Format : MPEG Audio
Format version : Version 1
Format profile : Layer 3
Mode : Joint stereo
Format_Settings_ModeExtension : MS Stereo
Duration : 1h 52mn
Bit rate mode : Constant
Bit rate : 128 Kbps
Channel(s) : 2 channels
Sampling rate : 48.0 KHz
Stream size : 103 MiB (100%)

NOTES:

IMAGiNE bringing you another release.....Iron Man 2

Sources used....Russian TS and the audio is our own direct audio that we mentioned in the cam release. ;-) Syncing it was a right pain, but turned out great.








Kod:
 
http://rapidshare.com/files/385217299/I.M.2.TS.IMAG-poizonx.com.part1.rar
http://rapidshare.com/files/385217196/I.M.2.TS.IMAG-poizonx.com.part2.rar
http://rapidshare.com/files/385217330/I.M.2.TS.IMAG-poizonx.com.part3.rar
http://rapidshare.com/files/385217249/I.M.2.TS.IMAG-poizonx.com.part4.rar
http://rapidshare.com/files/385219104/I.M.2.TS.IMAG-poizonx.com.part5.rar
http://rapidshare.com/files/385218616/I.M.2.TS.IMAG-poizonx.com.part6.rar
http://rapidshare.com/files/385218683/I.M.2.TS.IMAG-poizonx.com.part7.rar
http://rapidshare.com/files/385218126/I.M.2.TS.IMAG-poizonx.com.part8.rar

ili

http://hotfile.com/dl/45244751/fb0b680/I.M.2.TS.IMAG-poizonx.com.part1.rar.html
http://hotfile.com/dl/45244756/4d37609/I.M.2.TS.IMAG-poizonx.com.part2.rar.html
http://hotfile.com/dl/45244753/0913d57/I.M.2.TS.IMAG-poizonx.com.part3.rar.html
http://hotfile.com/dl/45244758/5ab9776/I.M.2.TS.IMAG-poizonx.com.part4.rar.html
http://hotfile.com/dl/45244757/090fcce/I.M.2.TS.IMAG-poizonx.com.part5.rar.html
http://hotfile.com/dl/45245636/64b7fef/I.M.2.TS.IMAG-poizonx.com.part6.rar.html
http://hotfile.com/dl/45245743/4ab3b7c/I.M.2.TS.IMAG-poizonx.com.part7.rar.html
http://hotfile.com/dl/45245746/68f2ffb/I.M.2.TS.IMAG-poizonx.com.part8.rar.html

ili

http://www.fileserve.com/file/gWAuPak/I.M.2.TS.IMAG-poizonx.com.part1.rar
http://www.fileserve.com/file/GSXAUN9/I.M.2.TS.IMAG-poizonx.com.part2.rar
http://www.fileserve.com/file/JQrcevA/I.M.2.TS.IMAG-poizonx.com.part3.rar
http://www.fileserve.com/file/m8SUcDu/I.M.2.TS.IMAG-poizonx.com.part4.rar
http://www.fileserve.com/file/qmmZQgn/I.M.2.TS.IMAG-poizonx.com.part5.rar
http://www.fileserve.com/file/WBGsWgD/I.M.2.TS.IMAG-poizonx.com.part6.rar
http://www.fileserve.com/file/YrqkgrH/I.M.2.TS.IMAG-poizonx.com.part7.rar
http://www.fileserve.com/file/zEWPYHF/I.M.2.TS.IMAG-poizonx.com.part8.rar

ili

http://freakshare.net/files/1bcvb3b6/I.M.2.TS.IMAG-poizonx.com.part1.rar.html
http://freakshare.net/files/fcm7ma2y/I.M.2.TS.IMAG-poizonx.com.part2.rar.html
http://freakshare.net/files/cf6ptvrc/I.M.2.TS.IMAG-poizonx.com.part3.rar.html
http://freakshare.net/files/qen2t006/I.M.2.TS.IMAG-poizonx.com.part4.rar.html
http://freakshare.net/files/3a9c94cy/I.M.2.TS.IMAG-poizonx.com.part5.rar.html
http://freakshare.net/files/yqi9inq9/I.M.2.TS.IMAG-poizonx.com.part6.rar.html
http://freakshare.net/files/fg60anq9/I.M.2.TS.IMAG-poizonx.com.part7.rar.html
http://freakshare.net/files/m7egol08/I.M.2.TS.IMAG-poizonx.com.part8.rar.html
Nazad na vrh Ići dole
Pogledaj profil korisnika http://serbian-street.guildealliance.com
 
Iron Man 2 (2010) TS XViD
Pogledaj prethodnu temu Pogledaj sledeću temu Nazad na vrh 
Strana 1 od 1
 Similar topics
-
» Nov posao i napredovanje u 2010
» Venera u Biku, od 1. aprila 2010 kako deluje na vas?
» Retrogradni Merkur od 10.-30. 12.2010. u Jarcu i Strelcu
» Tranzit venere i marsa kroz Skorpiju
» Football Manager

Dozvole ovog foruma:Ne možete odgovarati na teme u ovom forumu
Serbian Street Forum :: » Kanta :: Downaload :: Filomovi :: Strani Filmovi-
Skoči na: